Enable / Włącz Javascript
 Widok 
 Kategorie 
 Nitro Torrent w sieci 
 Top 10 użytkowników 
 The Jewel Of The Nile (1985) [1080p.Bluray.x264.DTS-FGT] [Napisy PL]

The Jewel Of The Nile (1985) [1080p.Bluray.x264.DTS-FGT] [Napisy PL]
Kategoria: » » »
Dodane: 03/10/2017
Rozmiar: 15.14 GB
Uploader: tomysparow559 (10)
seed(ów): 0
leecher(ów): 0
Pobrane: 2
Komentarzy: 0
Pobierz Torrent Pobierz Torrent
Pobierz [Magnet] Pobierz [Magnet]

Obserwuj
Raportuj
Produkcja: USA
Gatunek: Przygodowy, Komedia rom.
Reżyseria: Lewis Teague
Scenariusz: Lawrence Konner, Mark Rosenthal

Opis:
Joan i Jack przeżywają kryzys w związku. Podczas gdy pisarka przyjmuje zaproszenie od szejka, jej partner spotyka dawnego znajomego, Ralpha.

Obsada:
Michael Douglas ... Jack Colton
Kathleen Turner ... Joan Wilder
Danny DeVito ... Ralph
Spiros Focás ... Omar
Avner Eisenberg ... Jewel

Dane techniczne:
Video
ID : 1
Format : AVC
Format/Info : Advanced Video Codec
Format profile : High@L4.1
Format settings, CABAC : Yes
Format settings, ReFrames : 5 frames
Codec ID : V_MPEG4/ISO/AVC
Duration : 1h 45mn
Bit rate : 18.5 Mbps
Width : 1 920 pixels
Height : 818 pixels
Display aspect ratio : 2.35:1
Frame rate mode : Constant
Frame rate : 23.976 (24000/1001) fps
Color space : YUV
Chroma subsampling : 4:2:0
Bit depth : 8 bits
Scan type : Progressive
Bits/(Pixel*Frame) : 0.493
Stream size : 13.7 GiB (91%)
Writing library : x264 core 142 r2431+42 c69a006 tMod [8-bit@4:2:0 X86_64]
Language : English
Default : Yes
Forced : No
Color range : Limited
Color primaries : BT.709
Transfer characteristics : BT.709
Matrix coefficients : BT.709

Audio
ID : 2
Format : DTS
Format/Info : Digital Theater Systems
Mode : 16
Format settings, Endianness : Big
Codec ID : A_DTS
Duration : 1h 45mn
Bit rate mode : Constant
Bit rate : 1 509 Kbps
Channel(s) : 6 channels
Channel positions : Front: L C R, Side: L R, LFE
Sampling rate : 48.0 KHz
Frame rate : 93.750 fps (512 spf)
Bit depth : 24 bits
Compression mode : Lossy
Stream size : 1.12 GiB (7%)
Language : English
Default : Yes
Forced : No

Text
ID : 3
Format : UTF-8
Codec ID : S_TEXT/UTF8
Codec ID/Info : UTF-8 Plain Text
Language : English
Default : No
Forced : No

Menu
00:00:00.000 : en:Chapter 1
00:03:45.850 : en:Chapter 2
00:08:14.285 : en:Chapter 3
00:11:29.647 : en:Chapter 4
00:16:04.421 : en:Chapter 5
00:19:49.313 : en:Chapter 6
00:23:49.386 : en:Chapter 7
00:24:51.114 : en:Chapter 8
00:27:00.243 : en:Chapter 9
00:30:28.743 : en:Chapter 10
00:37:11.938 : en:Chapter 11
00:44:10.105 : en:Chapter 12
00:52:47.789 : en:Chapter 13
00:57:11.344 : en:Chapter 14
01:02:17.400 : en:Chapter 15
01:08:43.828 : en:Chapter 16
01:10:49.954 : en:Chapter 17
01:13:52.928 : en:Chapter 18
01:16:17.072 : en:Chapter 19
01:23:58.199 : en:Chapter 20
01:26:23.136 : en:Chapter 21
01:29:59.685 : en:Chapter 22
01:34:14.315 : en:Chapter 23
01:40:56.717 : en:Chapter 24

Napisy:
http://www15.zippyshare.com/v/fc083NJQ/file.html / Napiprojekt

Trailer:
http://www.youtube.com/watch?v=IFc2QKCnGEg

3604113 torrent pobrano z http://*censored*
Dostępne napisy
Brak napisów
Szczegóły torrenta
Tracker http://tracker.trackerfix.com:80/announce
Multitracker [ Pokaż ]
Kategoria: » » » [Zgłoś błąd]
Dodane 03-10-2017
Podziękowali:
0 użytkowników 
Podziękuj!
Pokaż / Ukryj pliki:
Nazwa pliku Rozmiar
RARBG.com.txt 0.03 KB
The.Jewel.of.the.Nile.1985.1080p.BluRay.x264.DTS-FGT.mkv 15.14 GB
The.Jewel.of.the.Nile.1985.1080p.BluRay.x264.DTS-FGT.nfo 6.17 KB
3 plików
Brak komentarzy...