Enable / Włącz Javascript
 Widok 
 Kategorie 
 Nitro Torrent w sieci 
 Top 10 użytkowników 
 Romancing The Stone (1984) [1080p.Bluray.x264.DTS-FGT] [Napisy PL]

Romancing The Stone (1984) [1080p.Bluray.x264.DTS-FGT] [Napisy PL]
Kategoria: » » »
Dodane: 03/10/2017
Rozmiar: 14.89 GB
Uploader: tt-ar.com❱ Wędrowiec
seed(ów): 0
leecher(ów): 0
Pobrane: 3
Komentarzy: 0
Pobierz Torrent Pobierz Torrent
Pobierz [Magnet] Pobierz [Magnet]

Obserwuj
Raportuj
Produkcja: USA, Meksyk
Gatunek: Przygodowy, Komedia rom.
Reżyseria: Robert Zemeckis
Scenariusz: Howard Franklin, Lem Dobbs

Opis:
Joan Wilder autorka bestsellerowych powieści przygodowych otrzymuje z Kolumbii od nieżyjącego szwagra list z mapą na której zaznaczono pewne miejsce. Najpierw niezainteresowana sprawą zmienia zdanie po telefonie od dwóch gangsterów, którzy w Kolumbii uprowadzili jej siostrę. Joan za wszelką cenę postanawia ratować siostrę i wyrusza do Kolumbii.

Obsada:
Michael Douglas ... Jack T. Colton
Kathleen Turner ... Joan Wilder
Danny DeVito ... Ralph
Zack Norman ... Ira
Alfonso Arau ... Juan

Dane techniczne:
Video
ID : 1
Format : AVC
Format/Info : Advanced Video Codec
Format profile : High@L4.1
Format settings, CABAC : Yes
Format settings, ReFrames : 5 frames
Codec ID : V_MPEG4/ISO/AVC
Duration : 1h 45mn
Bit rate : 18.2 Mbps
Width : 1 920 pixels
Height : 810 pixels
Display aspect ratio : 2.40:1
Frame rate mode : Constant
Frame rate : 23.976 (24000/1001) fps
Color space : YUV
Chroma subsampling : 4:2:0
Bit depth : 8 bits
Scan type : Progressive
Bits/(Pixel*Frame) : 0.489
Stream size : 13.5 GiB (91%)
Writing library : x264 core 142 r2431+42 c69a006 tMod [8-bit@4:2:0 X86_64]
Language : English
Default : Yes
Forced : No
Color range : Limited
Color primaries : BT.709
Transfer characteristics : BT.709
Matrix coefficients : BT.709

Audio
ID : 2
Format : DTS
Format/Info : Digital Theater Systems
Mode : 16
Format settings, Endianness : Big
Codec ID : A_DTS
Duration : 1h 45mn
Bit rate mode : Constant
Bit rate : 1 509 Kbps
Channel(s) : 6 channels
Channel positions : Front: L C R, Side: L R, LFE
Sampling rate : 48.0 KHz
Frame rate : 93.750 fps (512 spf)
Bit depth : 24 bits
Compression mode : Lossy
Stream size : 1.11 GiB (7%)
Language : English
Default : Yes
Forced : No

Text
ID : 3
Format : UTF-8
Codec ID : S_TEXT/UTF8
Codec ID/Info : UTF-8 Plain Text
Language : English
Default : No
Forced : No

Menu
00:00:00.000 : en:The Adventures of Angelina
00:00:51.384 : en:The Romance Writer (Main Titles)
00:07:45.882 : en:The Deadly Delivery
00:12:33.752 : en:There's Someone Out There
00:17:42.561 : en:The Kidnapping
00:24:38.310 : en:El Corazon
00:28:01.679 : en:Off to Columbia
00:33:36.431 : en:The Wrong Bus
00:41:54.469 : en:A Hero on the Horizon
00:46:58.106 : en:Welcome to Columbia!
00:49:40.352 : en:The Great Escape
00:54:15.168 : en:The Flyboys' Gifts
01:00:42.639 : en:A Real Man
01:05:35.139 : en:Jack T. Colton
01:08:15.800 : en:Her Biggest Fan
01:14:39.433 : en:The Little Mule
01:16:59.823 : en:Cartegena
01:20:15.810 : en:True Romance
01:24:36.279 : en:The Heart of the Matter
01:26:09.789 : en:Romancing the Stone
01:30:39.434 : en:Three on the Run
01:35:47.992 : en:The Meeting
01:40:14.675 : en:Where's The Stone?
01:42:43.365 : en:Hell in Cartagena

Napisy:
http://www42.zippyshare.com/v/feiI6Q4z/file.html / Napiprojekt

Trailer:
http://www.youtube.com/watch?v=DL40GuLfxA8

3599005 torrent pobrano z http://*censored*
Dostępne napisy
Brak napisów
Szczegóły torrenta
Tracker http://tracker.trackerfix.com:80/announce
Multitracker [ Pokaż ]
Kategoria: » » » [Zgłoś błąd]
Dodane 03-10-2017
Podziękowali:
0 użytkowników 
Podziękuj!
Pokaż / Ukryj pliki:
Nazwa pliku Rozmiar
RARBG.com.txt 0.03 KB
Romancing.the.Stone.1984.1080p.BluRay.x264.DTS-FGT.mkv 14.89 GB
Romancing.the.Stone.1984.1080p.BluRay.x264.DTS-FGT.nfo 6.34 KB
3 plików
Brak komentarzy...