Enable / Włącz Javascript
 Widok 
 Kategorie 
 Nitro Torrent w sieci 
 Top 10 użytkowników 
 Piraci- Pirates (2014)[BRRip.1080p.x264.DTS] [Napisy PLENG] [Korea]

Piraci- Pirates (2014)[BRRip.1080p.x264.DTS] [Napisy PLENG] [Korea]
Kategoria: » » »
Dodane: 03/10/2017
Rozmiar: 7.88 GB
Uploader: tt-ar.com❱ Wędrowiec
seed(ów): 0
leecher(ów): 0
Pobrane: 2
Komentarzy: 0
Pobierz Torrent Pobierz Torrent
Pobierz [Magnet] Pobierz [Magnet]

Obserwuj
Raportuj
F_INFO



http://www.imdb.com/title/tt3485166/

produkcja:   South Korea
data:        6 August 2014
gatunek:     Historyczny, Przygodowy, Komedia
reżyseria:   Seok-hoon Lee
scenariusz:  Seong-il Cheon
czas:        02:09:48

F_OPIS

A band of pirates and a group of bandits fight to catch a gray whale that
has swallowed a royal stamp.

Film opowiada historię Joseon.
Gang piratów konkuruje z gangiem bandytów górskich w poszukiwaniu fortuny,
próbują złapać wieloryba który połknął okręt ze skarbem, w którym jest
najcenniejsza rzecz - "cesarska pieczęć"-prezent chińskiego cesarza do króla Korei.

Dodam od siebie :
Akcja, Humor, Pojedynki, Wspaniałe Widoki, Miłość i Zemsta.








F_OBSADA

Nam-gil Kim, Ye-jin Son, Hae-jin Yoo

F_DANE

Pirates (2014)-alE13.mkv
Format                      : Matroska
Format version              : Version 4 / Version 2
File size                   : 4.00 GiB
Duration                    : 2h 9mn
Overall bit rate            : 4 412 Kbps
Movie name                  : Nightcrawler (2014)-alE13
Encoded date                : UTC 2015-01-29 09:58:42
Writing application         : mkvmerge v6.7.0
Writing library             : libebml v1.3.0 + libmatroska v1.4.1

Video
ID                          : 1
Format                      : AVC
Format/Info                 : Advanced Video Codec
Format profile              : High@L4.0
Format settings, CABAC      : Yes
Format settings, ReFrames   : 2 frames
Format settings, GOP        : M=1, N=12
Codec ID                    : V_MPEG4/ISO/AVC
Duration                    : 2h 9mn
Bit rate mode               : Constant
Bit rate                    : 2 900 Kbps
Width                       : 1 920 pixels
Height                      : 804 pixels
Display aspect ratio        : 2.40:1
Frame rate mode             : Constant
Frame rate                  : 24.000 fps
Color space                 : YUV
Chroma subsampling          : 4:2:0
Bit depth                   : 8 bits
Scan type                   : Progressive
Bits/(Pixel*Frame)          : 0.078
Stream size                 : 2.55 GiB (64%)
Title                       : Pirates (2014)-alE13
Default                     : Yes
Forced                      : No

Audio
ID                          : 2
Format                      : DTS
Format/Info                 : Digital Theater Systems
Mode                        : 16
Format settings, Endianness : Big
Codec ID                    : A_DTS
Duration                    : 2h 9mn
Bit rate mode               : Constant
Bit rate                    : 1 509 Kbps
Channel(s)                  : 6 channels
Channel positions           : Front: L C R, Side: L R, LFE
Sampling rate               : 48.0 KHz
Bit depth                   : 24 bits
Compression mode            : Lossy
Stream size                 : 1.37 GiB (34%)
Title                       : Pirates (2014)-alE13
Language                    : Korean
Default                     : No
Forced                      : No

Text
ID                          : 3
Format                      : VobSub
Muxing mode                 : zlib
Codec ID                    : S_VOBSUB
Codec ID/Info               : The same subtitle format used on DVDs
Title                       : Pirates (2014)-alE13
Language                    : English
Default                     : Yes
Forced                      : No

Menu
00:00:00.000                : en:00:00:00.000
00:08:05.500                : en:00:08:05.500
00:19:42.458                : en:00:19:42.458
00:30:07.000                : en:00:30:07.000
00:40:11.208                : en:00:40:11.208
00:50:49.833                : en:00:50:49.833
00:58:16.333                : en:00:58:16.333
01:09:47.875                : en:01:09:47.875
01:18:41.208                : en:01:18:41.208
01:29:26.667                : en:01:29:26.667
01:40:56.208                : en:01:40:56.208
01:48:55.292                : en:01:48:55.292
02:05:23.083                : en:02:05:23.083



Dostępne napisy
Brak napisów
Szczegóły torrenta
Tracker udp://inferno.demonoid.ooo:3392/announce
Multitracker [ Pokaż ]
Kategoria: » » » [Zgłoś błąd]
Dodane 03-10-2017
Podziękowali:
0 użytkowników 
Podziękuj!
Pokaż / Ukryj pliki:
Nazwa pliku Rozmiar
Pirates (2014)-alE13.mkv 7.88 GB
Subtitles/Subtitles.rar 2.59 MB
txt.jpg 232.86 KB
info/Nostalgie.jpg 138.36 KB
poster.jpg 103.18 KB
Subtitles/Pirates (2014)-alE13.rar 31.15 KB
info/Torrent downloadet from alE13 at filetracker.pl 0.21 KB
info/Torrent downloaded from alE13 torrents at BTScene.org.txt 0.12 KB
info/Torrent downloaded from demonoid.pw.txt 0.04 KB
9 plików
Brak komentarzy...