Enable / Włącz Javascript
 Widok 
 Kategorie 
 Nitro Torrent w sieci 
 Top 10 użytkowników 
 Piekło-Inferno (1953)[BRRip 1080p x264 by alE13 AC3] [Napisy PLENG] [ENG]

Piekło-Inferno (1953)[BRRip 1080p x264 by alE13 AC3] [Napisy PLENG] [ENG]
Kategoria: » » »
Dodane: 03/10/2017
Rozmiar: 8.44 GB
Uploader: tomysparow559 (10)
seed(ów): 0
leecher(ów): 0
Pobrane: 1
Komentarzy: 0
Pobierz Torrent Pobierz Torrent
Pobierz [Magnet] Pobierz [Magnet]

Obserwuj
Raportuj
reżyseria: Roy Ward Baker
scenariusz: Francis M. Cockrell
gatunek: Dramat,Przygodowy
produkcja: USA
premiera: 12-08-1953
muzyka:         Paul Sawtell
zdjęcia:        Lucien Ballard
czas:           1h 23mn

opis:

Bezwzględny magnat przemysłowy łamie nogę i zostaje pozostawiony na pustyni
przez żonę oraz jej chciwego kochanka.




obsada:

Robert Ryan, Rhonda Fleming, William Lundigan

dane techniczne:

Inferno 3D (1953)-alE13.mkv
Format                      : Matroska
Format version              : Version 4 / Version 2
File size                   : 8.34 GiB
Duration                    : 1h 23mn
Overall bit rate            : 14.3 Mbps
Movie name                  : Inferno 3D (1953)-alE13
Encoded date                : UTC 2016-05-02 06:38:06
Writing application         : mkvmerge v8.1.0 ('Psychedelic Postcard') 64bit
Writing library             : libebml v1.3.1 + libmatroska v1.4.2

Video
ID                          : 1
Format                      : AVC
Format/Info                 : Advanced Video Codec
Format profile              : High@L4.1
Format settings, CABAC      : Yes
Format settings, ReFrames   : 4 frames
Codec ID                    : V_MPEG4/ISO/AVC
Duration                    : 1h 23mn
Bit rate                    : 13.6 Mbps
Width                       : 1 920 pixels
Height                      : 1 080 pixels
Display aspect ratio        : 16:9
Frame rate mode             : Constant
Frame rate                  : 23.976 (24000/1001) fps
Color space                 : YUV
Chroma subsampling          : 4:2:0
Bit depth                   : 8 bits
Scan type                   : Progressive
Bits/(Pixel*Frame)          : 0.274
Stream size                 : 7.96 GiB (95%)
Title                       : Inferno 3D (1953)-alE13
Writing library             : x264 core 146 r2538 121396c
Language                    : English
Default                     : Yes
Forced                      : No

Audio
ID                          : 3
Format                      : AC-3
Format/Info                 : Audio Coding 3
Mode extension              : CM (complete main)
Format settings, Endianness : Big
Codec ID                    : A_AC3
Duration                    : 1h 23mn
Bit rate mode               : Constant
Bit rate                    : 640 Kbps
Channel(s)                  : 2 channels
Channel positions           : Front: L R
Sampling rate               : 48.0 KHz
Frame rate                  : 31.250 fps (1536 spf)
Compression mode            : Lossy
Delay relative to video     : 1s 950ms
Stream size                 : 383 MiB (4%)
Title                       : Inferno 3D (1953)-alE13
Language                    : English
Default                     : Yes
Forced                      : No

Text
ID                          : 2
Format                      : VobSub
Muxing mode                 : zlib
Codec ID                    : S_VOBSUB
Codec ID/Info               : Picture based subtitle format used on DVDs
Duration                    : 1h 22mn
Bit rate                    : 6 684 bps
Count of elements           : 684
Stream size                 : 3.97 MiB (0%)
Title                       : Inferno 3D (1953)-alE13
Language                    : Polish
Default                     : Yes
Forced                      : No

Menu
00:00:00.000                : :1
00:08:34.264                : :2
00:18:45.124                : :3
00:30:50.849                : :4
00:41:49.507                : :5
00:49:02.731                : :6
01:00:20.617                : :7
01:09:10.146                : :8

Dostępne napisy
Brak napisów
Szczegóły torrenta
Tracker http://tracker.aletorrenty.pl:2710/announce
Multitracker [ Pokaż ]
Kategoria: » » » [Zgłoś błąd]
Dodane 03-10-2017
Podziękowali:
0 użytkowników 
Podziękuj!
Pokaż / Ukryj pliki:
Nazwa pliku Rozmiar
info/Nostalgie.jpg 138.36 KB
info/Torrent downloaded from alE13 torrents at BTScene.org.txt 0.12 KB
info/Torrent downloaded from demonoid.pw.txt 0.04 KB
info/Torrent downloaded from - www.aletorrenty.pl 0.04 KB
subtitles/Inferno 3D (1953)-alE13.rar 2.84 MB
Inferno 3D (1953)-alE13.mkv 8.34 GB
sample.mkv 99.12 MB
txt.jpg 122.64 KB
1.jpg 89.08 KB
9 plików
Brak komentarzy...