Enable / Włącz Javascript
 Widok 
 Kategorie 
 Nitro Torrent w sieci 
 Top 10 użytkowników 
 Hrabia z Czarnogóry-Graf Montenegro (2006)[DVDHDRip.1080p.x264-by alE13.DTS-HRACore] [Napisy PL] [Rus]

Hrabia z Czarnogóry-Graf Montenegro (2006)[DVDHDRip.1080p.x264-by alE13.DTS-HRACore] [Napisy PL] [Rus]
Kategoria: » » »
Dodane: 03/10/2017
Rozmiar: 8.12 GB
Uploader: tt-ar.com❱ Wędrowiec
seed(ów): 0
leecher(ów): 0
Pobrane: -
Komentarzy: 0
Pobierz Torrent Pobierz Torrent
Pobierz [Magnet] Pobierz [Magnet]

Obserwuj
Raportuj
F_INFO

[center]

http://www.imdb.com/title/tt0887742/
http://www.filmweb.pl/film/Graf+Montenegro-2006-434232

No English subtitles.

Napisy na stałe wpalone w film.


reżyseria: Marina Migunova, Tatiana Makovchik
scenariusz: Marina Migunova, Vadim Mikhalyov
gatunek: Komedia, Przygodowy
produkcja: Rosja
premiera: 06-05-2006
czas:           01:52:31

F_OPIS

Andrey inherits a map to his great-grandmother's treasure, a gift from her lover, and hidden since the early 19th century.
He and Mikhail, the descendant of his great-grandmother's lover, follow the map's clues to Montenegro.

Śmiertelnie ranny w czasie powstania dekabrystów generał-gubernator Sankt-Petersburga Michaił Miłoradowicz,
przekazuje tajemnicę schowanych w górach Czarnogóry skarbów swojej ukochanej - aktorce Jekatierinie Tieleszewoj.
Jej potomek - Andriej Tieleszew - nieskutecznie próbuje odszyfrować drogocenną mapę, która przypadła mu w spadku.
Lecz to kopia... Oryginał mapy należy do potomka Miłoradowicza - Michaiła. Andriej i Miłoradowicz udają się do
Czarnogóry. Tylko oni mogą odnaleźć skarb, jednak niespodzianie pojawia się poważny konkurent w osobie Ojca Siergija,
który, przypadkowo dowiedziawszy się o tajemnicy, także pretenduje do skarbu. Bohaterów czekają komiczne sytuacje,
nieprawdopodobne przejścia i oczywiście, miłość. Czarnogórska piękność Slavka powinna pomóc awanturnikom urzeczywistnić
ich marzenie.

Dodam od siebie, gra w tym filmie Aleksandr Domogarow który zagrał w filmie "Ogniem i Mieczem" Jurko Bohuna.
Przyznam, trzyma się facet, a sam film lekki i zabawny, polecam.







F_OBSADA

Aleksandr Domogarov, Eugenia Khirivskaya, Aleksey Chadov

F_DANE

Graf Montenegro (2006)-alE13 .mkv
Format                      : Matroska
Format version              : Version 4 / Version 2
File size                   : 8.12 GiB
Duration                    : 1h 52mn
Overall bit rate mode       : Constant
Overall bit rate            : 10.3 Mbps
Movie name                  : Graf Montenegro (2006)-alE13
Encoded date                : UTC 2015-09-15 18:46:33
Writing application         : mkvmerge v8.3.0 ('Over the Horizon') 64bit
Writing library             : libebml v1.3.1 + libmatroska v1.4.2
DURATION                    : 01:52:31.713000000
NUMBER_OF_FRAMES            : 632973
NUMBER_OF_BYTES             : 2159703876
_STATISTICS_WRITING_APP     : mkvmerge v8.3.0 ('Over the Horizon') 64bit
_STATISTICS_WRITING_DATE_UT : 2015-09-15 18:46:33
_STATISTICS_TAGS            : BPS DURATION NUMBER_OF_FRAMES NUMBER_OF_BYTES

Video
ID                          : 1
Format                      : AVC
Format/Info                 : Advanced Video Codec
Format profile              : Main@L4
Format settings, CABAC      : Yes
Format settings, ReFrames   : 2 frames
Format settings, GOP        : M=8, N=12
Codec ID                    : V_MPEG4/ISO/AVC
Duration                    : 1h 52mn
Bit rate mode               : Constant
Bit rate                    : 7 770 Kbps
Width                       : 1 920 pixels
Height                      : 1 080 pixels
Display aspect ratio        : 16:9
Frame rate mode             : Constant
Frame rate                  : 23.976 fps
Color space                 : YUV
Chroma subsampling          : 4:2:0
Bit depth                   : 8 bits
Scan type                   : Progressive
Bits/(Pixel*Frame)          : 0.156
Stream size                 : 5.95 GiB (73%)
Title                       : Graf Montenegro (2006)-alE13
Default                     : Yes
Forced                      : No
DURATION                    : 01:52:32.788000000
NUMBER_OF_FRAMES            : 161905
NUMBER_OF_BYTES             : 6555002888
_STATISTICS_WRITING_APP     : mkvmerge v8.3.0 ('Over the Horizon') 64bit
_STATISTICS_WRITING_DATE_UT : 2015-09-15 18:46:33
_STATISTICS_TAGS            : BPS DURATION NUMBER_OF_FRAMES NUMBER_OF_BYTES

Audio
ID                          : 2
Format                      : DTS
Format/Info                 : Digital Theater Systems
Format profile              : HRA / Core
Mode                        : 16
Format settings, Endianness : Big
Codec ID                    : A_DTS
Duration                    : 1h 52mn
Bit rate mode               : Constant
Bit rate                    : 2 559 Kbps / 1 509 Kbps
Channel(s)                  : 6 channels
Channel positions           : Front: L C R, Side: L R, LFE
Sampling rate               : 48.0 KHz
Bit depth                   : 24 bits
Compression mode            : Lossy
Delay relative to video     : 58ms
Stream size                 : 2.01 GiB (25%)
Title                       : Graf Montenegro (2006)-alE13
Language                    : Russian
Default                     : No
Forced                      : No

Menu
00:00:00.000                : en:Chapter1
00:04:50.080                : en:Chapter2
00:11:53.200                : en:Chapter3
00:16:18.000                : en:Chapter4
00:27:10.220                : en:Chapter5
00:31:58.580                : en:Chapter6
00:47:16.380                : en:Chapter7
00:53:33.360                : en:Chapter8
01:10:23.580                : en:Chapter9
01:17:51.060                : en:Chapter10
01:33:53.060                : en:Chapter11
01:43:46.440                : en:Chapter12[/center]

== alE13 ==


Dostępne napisy
Brak napisów
Szczegóły torrenta
Tracker http://tracker.filetracker.pl:8089/announce
Multitracker [ Pokaż ]
Kategoria: » » » [Zgłoś błąd]
Dodane 03-10-2017
Podziękowali:
0 użytkowników 
Podziękuj!
Pokaż / Ukryj pliki:
Nazwa pliku Rozmiar
Graf Montenegro (2006)-alE13 .mkv 8.12 GB
1.jpg 181.12 KB
2.jpg 145.00 KB
info/Nostalgie.jpg 138.36 KB
subtitles/Graf_Montenegro_1_2006_Rus.rar 20.41 KB
info/Torrent downloadet from alE13 at filetracker.pl 0.21 KB
info/Torrent downloaded from alE13 torrents at BTScene.org.txt 0.12 KB
info/Torrent downloaded from demonoid.pw.txt 0.04 KB
8 plików
Brak komentarzy...